Infinite Skills - Cisco 200-101 (ICND2) Exam Training Video

Category: Technical

Tag: Programming


Posted on 2013-10-16. By anonymous.

Description


Infinite Skills - Cisco 200-101 (ICND2) Exam Training Video
English | MP4 | 1280x720 | AVC 225 Kbps 15.000 fps | AAC 64.0 Kbps 44.1 khz | 7.25 hours | 750 MB
Genre: Video Training

“In this Cisco 200-101 (ICND2) training course, Greg Dickinson teaches you the concepts that you will need to learn in order to pass the Cisco ICND2 (200-101) exam. The ICND2 is a required exam that you will need to pass in order to achieve your CCNA Routing and Switching certification. This tutorial is designed for the user that has already passed the ICND1 exam, or has a complete working knowledge of the topics covered in the CCENT certificate.
The lessons in this computer based training course are designed to specifically cover the information that you will need in order to pass your ICND2 exam. This includes the recommended learning topics from Cisco, and other information that may be on the exam. The topics covered include; LAN switching technologies, IP routing technologies, FHRP, Syslog, SNMP v2 & v3, troubleshooting, WAN technologies and many more important subjects you will need to know to pass your exam.
Once you have completed this entire Cisco 200-101 (ICND2) video tutorial, you will be familiar with all the material you are required to know for the ICND2 exam, and should be fully prepared for, and capable of, passing the test. Working files are included, allowing you to follow along with the author throughout the lessons.

01. Course Introduction
02. Keeping The LAN Functioning Properly
03. Troubleshooting IP Traffic
04. Router Redundancy
05. IP Routing
06. EIGRP
07. OSPF
08. WAN Links
09. Virtual Private Networks
10. IPv6 Routing
11. Network Management
12. Cisco Device Management
13. Course Recap”
MediaInfo:
General
Complete name : Cisco 200-101 (ICND2)\0101_2.mp4
Format : MPEG-4
Format profile : Base Media / Version 2
Codec ID : mp42
File size : 6.64 MiB
Duration : 6mn 0s
Overall bit rate : 154 Kbps
Encoded date : UTC 2013-07-06 13:32:04
Tagged date : UTC 2013-07-06 12:32:05
Writing application : Sorenson Squeeze
Comment : Encoded by

Video
ID : 2
Format : AVC
Format/Info : Advanced Video Codec
Format profile : Main@L3.1
Format settings, CABAC : Yes
Format settings, ReFrames : 4 frames
Codec ID : avc1
Codec ID/Info : Advanced Video Coding
Duration : 6mn 0s
Bit rate mode : Variable
Bit rate : 85.3 Kbps
Nominal bit rate : 225 Kbps
Width : 1 280 pixels
Height : 720 pixels
Display aspect ratio : 16:9
Frame rate mode : Constant
Frame rate : 15.000 fps
Color space : YUV
Chroma subsampling : 4:2:0
Bit depth : 8 bits
Scan type : Progressive
Bits/(Pixel*Frame) : 0.006
Stream size : 3.67 MiB (55%)
Writing library : x264 core 129
Encoding settings : cabac=1 / ref=3 / deblock=1:0:0 / analyse=0x1:0x111 / me=hex / subme=7 / psy=1 / psy_rd=1.00:0.00 / mixed_ref=1 / me_range=16 / chroma_me=1 / trellis=1 / 8x8dct=0 / cqm=0 / deadzone=21,11 / fast_pskip=1 / chroma_qp_offset=-2 / threads=24 / lookahead_threads=4 / sliced_threads=0 / nr=0 / decimate=1 / interlaced=0 / bluray_compat=0 / constrained_intra=0 / bframes=3 / b_pyramid=2 / b_adapt=1 / b_bias=0 / direct=1 / weightb=1 / open_gop=0 / weightp=2 / keyint=150 / keyint_min=15 / scenecut=50 / intra_refresh=0 / rc_lookahead=40 / rc=2pass / mbtree=1 / bitrate=225 / ratetol=100.0 / qcomp=0.60 / qpmin=0 / qpmax=69 / qpstep=4 / cplxblur=20.0 / qblur=0.5 / ip_ratio=1.40 / aq=1:1.00
Encoded date : UTC 2013-07-06 13:32:04
Tagged date : UTC 2013-07-06 13:32:04

Audio
ID : 1
Format : AAC
Format/Info : Advanced Audio Codec
Format profile : LC
Codec ID : 40
Duration : 6mn 0s
Bit rate mode : Constant
Bit rate : 64.0 Kbps
Channel(s) : 1 channel
Channel positions : Front: C
Sampling rate : 44.1 KHz
Compression mode : Lossy
Stream size : 2.75 MiB (41%)
Encoded date : UTC 2013-07-06 13:32:04
Tagged date : UTC 2013-07-06 13:32:04

Screenshots




no mirrors please, Follow The Rules
Visit Polik88 Blog Here
no password



Sponsored High Speed Downloads
6833 dl's @ 2417 KB/s
Download Now [Full Version]
7602 dl's @ 2568 KB/s
Download Link 1 - Fast Download
9656 dl's @ 2303 KB/s
Download Mirror - Direct Download



Search More...
Infinite Skills - Cisco 200-101 (ICND2) Exam Training Video

Search free ebooks in ebookee.com!


Links
Download this book

No active download links here?
Please check the description for download links if any or do a search to find alternative books.


Related Books

  1. Ebooks list page : 23489
  2. 2014-05-29Infinite Skills - Cisco 200-101 (ICND2) Exam Training Video
  3. 2014-04-20Infinite Skills - Cisco 200-101 (ICND2) Exam Training Video (MP4)
  4. 2014-04-22Infinite SkillsCisco 200-101 (ICND2) Exam Training Video (MP4)
  5. 2014-05-09InfiniteSkills - Cisco 200-101 (ICND2) Exam Training Video TUTORIAL-kEISO
  6. 2014-03-22Infiniteskills - Cisco 200-101 (ICND2) Exam Training Video TUTORIAL-kEISO
  7. 2014-03-15Infiniteskills - Cisco 200-101 (ICND2) Exam Training Video TUTORIAL-kEISO
  8. 2014-03-13InfiniteSkills - Cisco 200-101 (ICND2) Exam Training Video TUTORIAL-kEISO
  9. 2014-03-11InfiniteSkills - Cisco 200-101 (ICND2) Exam Training Video TUTORIAL-kEISO
  10. 2014-03-11Infiniteskills - Cisco 200-101 (ICND2) Exam Training Video
  11. 2013-10-11Infiniteskills: Cisco 200-101 (ICND2) Exam Training Video
  12. 2013-10-10Infiniteskills: Cisco 200-101 (ICND2) Exam Training Video With Greg Dickinson (2013)
  13. 2013-09-11InfiniteSkills-Cisco 200-101 (ICND2) Exam Training Video by Greg Dickinson
  14. 2013-09-09InfiniteSkills-Cisco 200-101 (ICND2) Exam Training Video by Greg Dickinson
  15. 2017-10-22[PDF] Cisco 200-101 (ICND2) Exam Training Made Easy
  16. 2016-05-08Cisco 200 101 (icnd2) Exam Training Made Easy
  17. 2014-05-17Infiniteskills - Cisco 200-101 Icnd2 Exam Training
  18. 2014-05-16Infiniteskills - Cisco 200-101 ICND2 Exam Training
  19. 2013-10-27RALOAD - Infiniteskills: Cisco 100-101 (ICND1) and Cisco 200-101 (ICND2) Exam Training Course With Greg Dickinson (2013)
  20. 2013-10-27RALOAD - Infiniteskills: Cisco 100-101 (ICND1) and Cisco 200-101 (ICND2) Exam Training Course With Greg Dickinson (2013)

Comments

No comments for "Infinite Skills - Cisco 200-101 (ICND2) Exam Training Video".


    Add Your Comments
    1. Download links and password may be in the description section, read description carefully!
    2. Do a search to find mirrors if no download links or dead links.

    required

    required, will not be published

    need login

    required

    Not clear? Click here to refresh.

    Back to Top